Cut Snake 2014 BRRip

Info Hash: 11afc89e5de75aa5759dfb0cd73e26a5668cc9e3
Torrent Added time: Sep 23, 2016
Cut Snake 2015
Tony Ayres

Blake Ayshford (screenplay)

Sullivan Stapleton, Alex Russell, Jessica De Gouw

You can hide from your past, but you can never escape it.




Release Date:
24 September 2015 (Australia)

Also Known As:
Kesik Yilan

Set in Melbourne in the mid-1970s, Cut Snake tells the story of Sparra Farrell (Alex Russell), an ex-convict who is trying to make a new life for himself in a new city. He has found honest work and even becomes engaged but the prospect of this new life is challenged when his foreboding and charismatic cell mate Pommie (Sullivan Stapleton) tracks him down upon his own release. Sparra finds himself enigmatically drawn back toward a world and a man that he was certain he had wanted to leave behind.

ID                                       : 0
Format                                   : MPEG-4 Visual
Format profile                           : Simple@L5
Format settings, BVOP                    : No
Format settings, QPel                    : No
Format settings, GMC                     : No warppoints
Format settings, Matrix                  : Default (H.263)
Codec ID                                 : XVID
Codec ID/Hint                            : XviD
Duration                                 : 1h 33mn
Bit rate                                 : 1 388 Kbps
Width                                    : 720 pixels
Height                                   : 302 pixels
Display aspect ratio                     : 2.40:1
Original display aspect ratio            : 2.40:1
Frame rate                               : 23.976 fps
Color space                              : YUV
Chroma subsampling                       : 4:2:0
Bit depth                                : 8 bits
Scan type                                : Progressive
Compression mode                         : Lossy
Bits/(Pixel*Frame)                       : 0.266
Stream size                              : 932 MiB (87%)
Title                                    :  Cut.Snake.2014.BRRip.XviD.MP3-RBG
Writing library                          : Lavc56.60.100

ID                                       : 1
Format                                   : MPEG Audio
Format version                           : Version 1
Format profile                           : Layer 3
Mode                                     : Joint stereo
Mode extension                           : MS Stereo
Codec ID                                 : 55
Codec ID/Hint                            : MP3
Duration                                 : 1h 33mn
Bit rate mode                            : Constant
Bit rate                                 : 192 Kbps
Channel(s)                               : 2 channels
Sampling rate                            : 48.0 KHz
Compression mode                         : Lossy
Stream size                              : 129 MiB (12%)
Alignment                                : Aligned on interleaves
Interleave, duration                     : 24 ms (0.58 video frame)
Interleave, preload duration             : 24 ms
Title                                    : Cut.Snake.2014.BRRip.XviD.MP3-RBG

Movie Rating:5.7/10( 720Votes)
Size:1.05 GB

Please Download ASAP
Movie Torrent Download
Try UseNeT Free Trial Client to Download this movie.Dsl speed downloading up to 25 Mbps, 100% Anonymous & Safe. Over 300 TB Movie Music TV Sexy Video and torrent.
2 Weeks Free Trial!

Previous page : The Beatles Eight Days A Week 2016 720p WEBRip   Next : Casa Grande 2014 DVDRip

People who liked this also watched...

Share Cut Snake 2014 BRRip torrent with your Friend. Thank you

Torrent Not Downloading?

How to Download Cut Snake 2014 BRRip via torrent?

Feel free to post your NFO, samples, subtitles, torrent, free download link, requirements or whatever-related comments here. use only English. Owners of this website aren't responsible for content of comments.

Recent Comments :
Your Name : Leave a reply