Dead 7 2016 BRRip



Info Hash:
Torrent Added time: Oct 18, 2016
Dead 7 2016
Director:
Danny Roew

Writers:
Nick Carter, Sawyer Perry (screenplay)

Stars:
Nick Carter, Carrie Keagan, Joey Fatone

Taglines:
Larger than life!

Genres:
Horror | Western

Country:
USA

Language:
English

Release Date:
1 April 2016 (USA)

Filming Locations:
Butte, Montana, USA

Plot: 
This is a post-apocalyptic Western that follows a group of gunslingers as they look to rid a small town of a zombie plague.

Video
ID                                       : 0
Format                                   : MPEG-4 Visual
Format profile                           : Simple@L5
Format settings, BVOP                    : No
Format settings, QPel                    : No
Format settings, GMC                     : No warppoints
Format settings, Matrix                  : Default (H.263)
Codec ID                                 : XVID
Codec ID/Hint                            : XviD
Duration                                 : 1h 28mn
Bit rate                                 : 1 599 Kbps
Width                                    : 720 pixels
Height                                   : 400 pixels
Display aspect ratio                     : 16:9
Frame rate                               : 23.976 fps
Color space                              : YUV
Chroma subsampling                       : 4:2:0
Bit depth                                : 8 bits
Scan type                                : Progressive
Compression mode                         : Lossy
Bits/(Pixel*Frame)                       : 0.232
Stream size                              : 1 012 MiB (88%)
Title                                    : Dead.7.2016.BRRip.XviD.MP3-RBG
Writing library                          : Lavc56.60.100

Audio
ID                                       : 1
Format                                   : MPEG Audio
Format version                           : Version 1
Format profile                           : Layer 3
Mode                                     : Joint stereo
Mode extension                           : MS Stereo
Codec ID                                 : 55
Codec ID/Hint                            : MP3
Duration                                 : 1h 28mn
Bit rate mode                            : Constant
Bit rate                                 : 192 Kbps
Channel(s)                               : 2 channels
Sampling rate                            : 48.0 KHz
Compression mode                         : Lossy
Stream size                              : 122 MiB (11%)
Alignment                                : Aligned on interleaves
Interleave, duration                     : 24 ms (0.58 video frame)
Interleave, preload duration             : 24 ms
Title                                    : Dead.7.2016.BRRip.XviD.MP3-RBG
Writing library                          : LAME3.99.5

Movie Rating:3.2/10( 678Votes)
Size:1.12 GB

Trailer

IMDB Link
Please Download ASAP
Movie Torrent Download
Try UseNeT Free Trial Client to Download this movie.Dsl speed downloading up to 25 Mbps, 100% Anonymous & Safe. Over 300 TB Movie Music TV Sexy Video and torrent.
2 Weeks Free Trial!

Previous page : Mary and Jane S01E07 HDTV   Next : NFL 2016 10 17 Jets vs Cardinals 720p HDTV

People who liked this also watched...

Share Dead 7 2016 BRRip torrent with your Friend. Thank you

Torrent Not Downloading?

How to Download Dead 7 2016 BRRip via torrent?

Feel free to post your NFO, samples, subtitles, torrent, free download link, requirements or whatever-related comments here. use only English. Owners of this website aren't responsible for content of comments.

Recent Comments :
Your Name : Leave a reply
CAPTCHA: rss