Looking The Movie 2016 BRRip



Info Hash:
Torrent Added time: Nov 15, 2016
Looking The Movie 2016
Creator:
Michael Lannan

Stars:
Jonathan Groff, Frankie J. Alvarez, Murray Bartlett

Taglines:
Find something real. (Season 1)

Genres:
Comedy | Drama | Romance

Country:
USA

Language:
English

Release Date:
19 January 2014 (USA)

Also Known As:
B oڧܧ

Filming Locations:
San Francisco, California, USA

Plot: 
The experiences of three close friends living and loving in modern-day San Francisco.

Video
ID                                       : 0
Format                                   : MPEG-4 Visual
Format profile                           : Simple@L5
Format settings, BVOP                    : No
Format settings, QPel                    : No
Format settings, GMC                     : No warppoints
Format settings, Matrix                  : Default (H.263)
Codec ID                                 : XVID
Codec ID/Hint                            : XviD
Duration                                 : 1h 24mn
Bit rate                                 : 1 503 Kbps
Width                                    : 720 pixels
Height                                   : 400 pixels
Display aspect ratio                     : 16:9
Frame rate                               : 23.976 fps
Color space                              : YUV
Chroma subsampling                       : 4:2:0
Bit depth                                : 8 bits
Scan type                                : Progressive
Compression mode                         : Lossy
Bits/(Pixel*Frame)                       : 0.218
Stream size                              : 910 MiB (77%)
Writing library                          : Lavc56.60.100

Audio
ID                                       : 1
Format                                   : AC-3
Format/Info                              : Audio Coding 3
Mode extension                           : CM (complete main)
Format settings, Endianness              : Big
Codec ID                                 : 2000
Duration                                 : 1h 24mn
Bit rate mode                            : Constant
Bit rate                                 : 448 Kbps
Channel(s)                               : 6 channels
Channel positions                        : Front: L C R, Side: L R, LFE
Sampling rate                            : 48.0 KHz
Frame rate                               : 31.250 fps (1536 spf)
Compression mode                         : Lossy
Stream size                              : 271 MiB (23%)
Alignment                                : Aligned on interleaves
Interleave, duration                     : 42 ms (1.00 video frame)
Interleave, preload duration             : 512 ms

Movie Rating:8.2/10( 11,566Votes)
Size:1.09 GB

IMDB Link
Please Download ASAP
Movie Torrent Download
Movie Torrent Download (AC3)
Try UseNeT Free Trial Client to Download this movie.Dsl speed downloading up to 25 Mbps, 100% Anonymous & Safe. Over 300 TB Movie Music TV Sexy Video and torrent.
2 Weeks Free Trial!

Previous page : Talking Dead S06E04 HDTV   Next : The Unbidden 2016 DVDRip

People who liked this also watched...

Share Looking The Movie 2016 BRRip torrent with your Friend. Thank you

Torrent Not Downloading?

How to Download Looking The Movie 2016 BRRip via torrent?

Feel free to post your NFO, samples, subtitles, torrent, free download link, requirements or whatever-related comments here. use only English. Owners of this website aren't responsible for content of comments.

Recent Comments :
Your Name : Leave a reply
CAPTCHA: rss