Reclusion 2016 BRRip



Info Hash: cd0ba9a05d9026543717cf75b016eeaae54f7599
Torrent Added time: Sep 23, 2016
Reclusion 2016
Director:
Norman Lesperance

Writer:
Nicholas Bianchi

Stars:
Nicholas Bianchi, Robin De Lano, Leann Donovan

Taglines:
Some people should be left alone.

Genres:
Thriller

Country:
USA

Language:
English

Release Date:
23 March 2016 (Australia)

Filming Locations:
Los Angeles, California, USA

Plot: 
A young couple awakens a terrible force when they attempt to socialize their reclusive neighbor.

Video
ID                                       : 0
Format                                   : MPEG-4 Visual
Format profile                           : Simple@L5
Format settings, BVOP                    : No
Format settings, QPel                    : No
Format settings, GMC                     : No warppoints
Format settings, Matrix                  : Default (H.263)
Codec ID                                 : XVID
Codec ID/Hint                            : XviD
Duration                                 : 1h 27mn
Bit rate                                 : 544 Kbps
Width                                    : 720 pixels
Height                                   : 298 pixels
Display aspect ratio                     : 2.40:1
Original display aspect ratio            : 2.40:1
Frame rate                               : 23.976 fps
Color space                              : YUV
Chroma subsampling                       : 4:2:0
Bit depth                                : 8 bits
Scan type                                : Progressive
Compression mode                         : Lossy
Bits/(Pixel*Frame)                       : 0.106
Stream size                              : 341 MiB (73%)
Title                                    :  Reclusion.2016.BRRip.XviD.MP3-RBG
Writing library                          : Lavc56.60.100

Audio
ID                                       : 1
Format                                   : MPEG Audio
Format version                           : Version 1
Format profile                           : Layer 3
Mode                                     : Joint stereo
Mode extension                           : MS Stereo
Codec ID                                 : 55
Codec ID/Hint                            : MP3
Duration                                 : 1h 27mn
Bit rate mode                            : Constant
Bit rate                                 : 192 Kbps
Channel(s)                               : 2 channels
Sampling rate                            : 48.0 KHz
Compression mode                         : Lossy
Stream size                              : 120 MiB (26%)
Alignment                                : Aligned on interleaves
Interleave, duration                     : 24 ms (0.58 video frame)
Interleave, preload duration             : 24 ms
Title                                    : Reclusion.2016.BRRip.XviD.MP3-RBG

Movie Rating:4.2/10( 10Votes)
Size:470.35 MB

IMDB Link
Please Download ASAP
Movie Torrent Download
Try UseNeT Free Trial Client to Download this movie.Dsl speed downloading up to 25 Mbps, 100% Anonymous & Safe. Over 300 TB Movie Music TV Sexy Video and torrent.
2 Weeks Free Trial!

Previous page : Standing Tall 2015 LIMITED DVDRip   Next : Wedding Doll 2015 LIMITED DVDRip

People who liked this also watched...

Share Reclusion 2016 BRRip torrent with your Friend. Thank you

Torrent Not Downloading?

How to Download Reclusion 2016 BRRip via torrent?

Feel free to post your NFO, samples, subtitles, torrent, free download link, requirements or whatever-related comments here. use only English. Owners of this website aren't responsible for content of comments.

Recent Comments :
Your Name : Leave a reply
CAPTCHA: rss