31 2016 HDRip 1080p WEBDL



Info Hash: 1edb84aae00a839a5a7baa0f7f880db77af4578f
Torrent Added time: Sep 16, 2016
31 2016
Director:
Rob Zombie

Writer:
Rob Zombie

Stars:
Malcolm McDowell, Richard Brake, Jeff Daniel Phillips

Taglines:
Death is the only escape.

Genres:
Horror | Thriller

Country:
USA | UK

Language:
English

Release Date:
16 September 2016 (USA)

Also Known As:
31: Celebration of Death

Plot: 
The day before Halloween, five carnival employees are kidnapped & held hostage in an isolated compound known as "Murderworld". On Halloween, they are thrown into a sadistic game called "31" where they must survive 12 hours against a gang of maniacs dressed like clowns. However, the clowns aren't the only ones they need to worry about - a grand scheme of satanic rituals & a much more sadistic plot awakens. It's time to play 31.

Video
ID                                       : 1
Format                                   : AVC
Format/Info                              : Advanced Video Codec
Format profile                           : High@L4
Format settings, CABAC                   : Yes
Format settings, ReFrames                : 5 frames
Codec ID                                 : V_MPEG4/ISO/AVC
Duration                                 : 1h 43mn
Bit rate                                 : 4 504 Kbps
Width                                    : 1 908 pixels
Height                                   : 788 pixels
Display aspect ratio                     : 2.40:1
Frame rate mode                          : Constant
Frame rate                               : 23.976 (24000/1001) fps
Color space                              : YUV
Chroma subsampling                       : 4:2:0
Bit depth                                : 8 bits
Scan type                                : Progressive
Bits/(Pixel*Frame)                       : 0.125
Stream size                              : 3.25 GiB (90%)
Title                                    : 31.2016.1080p.WEB-DL.DD5.1.H264-FGT
Language                                 : English
Default                                  : Yes
Forced                                   : No
Color range                              : Limited
Color primaries                          : BT.709
Transfer characteristics                 : BT.709
Matrix coefficients                      : BT.709

Audio
ID                                       : 2
Format                                   : AC-3
Format/Info                              : Audio Coding 3
Mode extension                           : CM (complete main)
Format settings, Endianness              : Big
Codec ID                                 : A_AC3
Duration                                 : 1h 43mn
Bit rate mode                            : Constant
Bit rate                                 : 384 Kbps
Channel(s)                               : 6 channels
Channel positions                        : Front: L C R, Side: L R, LFE
Sampling rate                            : 48.0 KHz
Frame rate                               : 31.250 fps (1536 spf)
Compression mode                         : Lossy
Stream size                              : 283 MiB (8%)
Title                                    : 31.2016.1080p.WEB-DL.DD5.1.H264-FGT
Language                                 : English
Default                                  : Yes
Forced                                   : No

Movie Rating:6.2/10( 913Votes)
Size: 3.59 GB(1080p)

IMDB Link
Please Download ASAP
Movie Torrent Download
Movie Torrent Download (1080p)
Try UseNeT Free Trial Client to Download this movie.Dsl speed downloading up to 25 Mbps, 100% Anonymous & Safe. Over 300 TB Movie Music TV Sexy Video and torrent.
2 Weeks Free Trial!

Previous page : Tell Me How I Die 2016 HDRip 1080p WEBDL   Next : LIVE with Kelly 2016 09 15 Colin Firth HDTV

People who liked this also watched...

Share 31 2016 HDRip 1080p WEBDL torrent with your Friend. Thank you

Torrent Not Downloading?

How to Download 31 2016 HDRip 1080p WEBDL via torrent?

Feel free to post your NFO, samples, subtitles, torrent, free download link, requirements or whatever-related comments here. use only English. Owners of this website aren't responsible for content of comments.

Recent Comments :
Your Name : Leave a reply
CAPTCHA: rss