37 2016 HDRip 1080p WEBDL



Info Hash: 9d1fa87c559f53d27049e5e34e66316490f72de5
Torrent Added time: Oct 07, 2016
37 2016
Director:
Puk Grasten

Writer:
Puk Grasten

Stars:
Samira Wiley, Michael Potts, Maria Dizzia

Taglines:
This Poster will Be Seen But Not Heard. This Film Will Be Seen and Heard.

Genres:
Drama

Country:
Denmark | USA

Language:
English

Release Date:
7 October 2016 (USA)

Filming Locations:
New York, USA

Plot: 
"37" is a powerful drama and a fictional account of the night Kitty Genovese was murdered in 1964, Kew Gardens, Queens, where 37 neighbors witnessed the killing and did not intervene. "37" examines the lives of a group of families during the day and night of a tragedy that shocked America.

Video
ID                                       : 1
Format                                   : AVC
Format/Info                              : Advanced Video Codec
Format profile                           : High@L4
Format settings, CABAC                   : Yes
Format settings, ReFrames                : 4 frames
Codec ID                                 : V_MPEG4/ISO/AVC
Duration                                 : 1h 21mn
Bit rate                                 : 5 100 Kbps
Width                                    : 1 916 pixels
Height                                   : 1 032 pixels
Display aspect ratio                     : 1.85:1
Frame rate mode                          : Constant
Frame rate                               : 23.976 fps
Color space                              : YUV
Chroma subsampling                       : 4:2:0
Bit depth                                : 8 bits
Scan type                                : Progressive
Bits/(Pixel*Frame)                       : 0.108
Stream size                              : 2.92 GiB (91%)
Title                                    : 37.2016.1080p.WEB-DL.DD5.1.H264-FGT
Language                                 : English
Default                                  : Yes
Forced                                   : No
Color range                              : Limited
Color primaries                          : BT.709
Transfer characteristics                 : BT.709
Matrix coefficients                      : BT.709

Audio
ID                                       : 2
Format                                   : AC-3
Format/Info                              : Audio Coding 3
Mode extension                           : CM (complete main)
Format settings, Endianness              : Big
Codec ID                                 : A_AC3
Duration                                 : 1h 21mn
Bit rate mode                            : Constant
Bit rate                                 : 384 Kbps
Channel(s)                               : 6 channels
Channel positions                        : Front: L C R, Side: L R, LFE
Sampling rate                            : 48.0 KHz
Frame rate                               : 31.250 fps (1536 spf)
Compression mode                         : Lossy
Stream size                              : 225 MiB (7%)
Title                                    : 37.2016.1080p.WEB-DL.DD5.1.H264-FGT
Language                                 : English
Default                                  : Yes
Forced                                   : No

Movie Rating:6.7/10( 29Votes)
Size:3.20 GB(1080p)

IMDB Link
Please Download ASAP
Movie Torrent Download
Movie Torrent Download (1080p)
Try UseNeT Free Trial Client to Download this movie.Dsl speed downloading up to 25 Mbps, 100% Anonymous & Safe. Over 300 TB Movie Music TV Sexy Video and torrent.
2 Weeks Free Trial!

Previous page : The Great Gilly Hopkins 2016 HDRip 1080p WEBDL   Next : The Alchemist Cookbook 2016 HDRip 1080p WEBDL

People who liked this also watched...

Share 37 2016 HDRip 1080p WEBDL torrent with your Friend. Thank you

Torrent Not Downloading?

How to Download 37 2016 HDRip 1080p WEBDL via torrent?

Feel free to post your NFO, samples, subtitles, torrent, free download link, requirements or whatever-related comments here. use only English. Owners of this website aren't responsible for content of comments.

Recent Comments :
Your Name : Leave a reply
CAPTCHA: rss