Independence Day Resurgence 2016 HDRip 1080p WEBDL

up Seed: 3096 down Leech: 4729

verified Download Torrent

faster Download Fast


Info Hash: 1fbede1de497ac4e86011c0e6f70865f12451665
Torrent Added time: Sep 23, 2016
Independence Day Resurgence 2016
Director:
Roland Emmerich

Writers:
Nicolas Wright (screenplay), James A. Woods (screenplay)

Stars:
Liam Hemsworth, Jeff Goldblum, Bill Pullman

Taglines:
20 Years Of Evolution

Genres:
Action | Adventure | Sci-Fi

Country:
USA

Language:
English

Release Date:
24 June 2016 (China)

Also Known As:
IDR

Filming Locations:
Albuquerque, New Mexico, USA

Plot: 
We always knew they were coming back. After 'Independence Day' redefined the event movie genre, the next epic chapter delivers global spectacle on an unimaginable scale. Using recovered alien technology, the nations of Earth have collaborated on an immense defense program to protect the planet. But nothing can prepare us for the aliens' advanced and unprecedented force. Only the ingenuity of a few brave men and women can bring our world back from the brink of extinction.

Video
ID                                       : 1
Format                                   : AVC
Format/Info                              : Advanced Video Codec
Format profile                           : High@L4
Format settings, CABAC                   : Yes
Format settings, ReFrames                : 5 frames
Codec ID                                 : V_MPEG4/ISO/AVC
Duration                                 : 2h 0mn
Bit rate                                 : 4 448 Kbps
Width                                    : 1 916 pixels
Height                                   : 798 pixels
Display aspect ratio                     : 2.40:1
Frame rate mode                          : Constant
Frame rate                               : 24.000 fps
Color space                              : YUV
Chroma subsampling                       : 4:2:0
Bit depth                                : 8 bits
Scan type                                : Progressive
Bits/(Pixel*Frame)                       : 0.121
Stream size                              : 3.73 GiB (90%)
Title                                    : Independence.Day.Resurgence.2016.1080p.WEB-DL.DD5.1.H264-FGT
Language                                 : English
Default                                  : Yes
Forced                                   : No
Color range                              : Limited
Color primaries                          : BT.709
Transfer characteristics                 : BT.709
Matrix coefficients                      : BT.709

Audio
ID                                       : 2
Format                                   : AC-3
Format/Info                              : Audio Coding 3
Mode extension                           : CM (complete main)
Format settings, Endianness              : Big
Codec ID                                 : A_AC3
Duration                                 : 2h 0mn
Bit rate mode                            : Constant
Bit rate                                 : 384 Kbps
Channel(s)                               : 6 channels
Channel positions                        : Front: L C R, Side: L R, LFE
Sampling rate                            : 48.0 KHz
Frame rate                               : 31.250 fps (1536 spf)
Compression mode                         : Lossy
Stream size                              : 330 MiB (8%)
Title                                    : Independence.Day.Resurgence.2016.1080p.WEB-DL.DD5.1.H264-FGT
Language                                 : English
Default                                  : Yes
Forced                                   : No

Movie Rating:5.4/10( 68,283Votes)
Size:4.14 GB(1080p)



IMDB Link
Please Download ASAP
Movie Torrent Download (1080p)
Movie Torrent Download
Try UseNeT Free Trial Client to Download this movie.Dsl speed downloading up to 25 Mbps, 100% Anonymous & Safe. Over 300 TB Movie Music TV Sexy Video and torrent.
2 Weeks Free Trial!

Previous page : Wedding Doll 2015 LIMITED DVDRip   Next : Truth 2015 1080p BluRay

People who liked this also watched...

Share Independence Day Resurgence 2016 HDRip 1080p WEBDL torrent with your Friend. Thank you

Torrent Not Downloading?

How to Download Independence Day Resurgence 2016 HDRip 1080p WEBDL via torrent?

Feel free to post your NFO, samples, subtitles, torrent, free download link, requirements or whatever-related comments here. use only English. Owners of this website aren't responsible for content of comments.

Recent Comments :
Your Name : Leave a reply
CAPTCHA: rss