Just In Time for Christmas 2015 1080p WEBDL



Info Hash:
Torrent Added time: Nov 30, 2016
Just In Time for Christmas 2015
Director:
Sean McNamara

Writers:
Helen Frost, Don MacLeod

Stars:
Eloise Mumford, Michael Stahl-David, Christopher Lloyd

Genres:
Comedy | Romance

Country:
USA | Canada

Language:
English

Release Date:
5 December 2015 (USA)

Also Known As:
ѧ ѧ اէ֧ӧ

Filming Locations:
Vancouver, British Columbia, Canada

Plot: 
A young psychology professor must choose between moving across the country for her dream job or staying in her hometown to marry the man of her dreams. On a foggy December night, she gets little help from a Coachman, who brings her three years into the future and shows her what her life will become.

Video
ID                                       : 1
Format                                   : AVC
Format/Info                              : Advanced Video Codec
Format profile                           : High@L4
Format settings, CABAC                   : Yes
Format settings, ReFrames                : 2 frames
Codec ID                                 : V_MPEG4/ISO/AVC
Duration                                 : 1h 36mn
Bit rate mode                            : Variable
Bit rate                                 : 5 062 Kbps
Maximum bit rate                         : 768 Kbps
Width                                    : 1 920 pixels
Height                                   : 1 080 pixels
Display aspect ratio                     : 16:9
Frame rate mode                          : Constant
Frame rate                               : 23.976 fps
Original frame rate                      : 25.000 fps
Color space                              : YUV
Chroma subsampling                       : 4:2:0
Bit depth                                : 8 bits
Scan type                                : Progressive
Bits/(Pixel*Frame)                       : 0.102
Stream size                              : 3.41 GiB (91%)
Title                                    : Just.In.Time.for.Christmas.2015.1080p.WEB-DL.DD5.1.H264-FGT
Language                                 : English
Default                                  : Yes
Forced                                   : No

Audio
ID                                       : 2
Format                                   : AC-3
Format/Info                              : Audio Coding 3
Mode extension                           : CM (complete main)
Format settings, Endianness              : Big
Codec ID                                 : A_AC3
Duration                                 : 1h 36mn
Bit rate mode                            : Constant
Bit rate                                 : 384 Kbps
Channel(s)                               : 6 channels
Channel positions                        : Front: L C R, Side: L R, LFE
Sampling rate                            : 48.0 KHz
Frame rate                               : 31.250 fps (1536 spf)
Compression mode                         : Lossy
Stream size                              : 265 MiB (7%)
Title                                    : Just.In.Time.for.Christmas.2015.1080p.WEB-DL.DD5.1.H264-FGT
Language                                 : English
Default                                  : Yes
Forced                                   : No

Movie Rating:6.8/10( 645Votes)
Size:3.75 GB

IMDB Link
Please Download ASAP
Movie Torrent Download
Movie Torrent Download (1080p)
Try UseNeT Free Trial Client to Download this movie.Dsl speed downloading up to 25 Mbps, 100% Anonymous & Safe. Over 300 TB Movie Music TV Sexy Video and torrent.
2 Weeks Free Trial!

Previous page : Ben Hur 2016 1080p BluRay   Next : Ink Master S08E15 No One Is Safe HDTV

People who liked this also watched...

Share Just In Time for Christmas 2015 1080p WEBDL torrent with your Friend. Thank you

Torrent Not Downloading?

How to Download Just In Time for Christmas 2015 1080p WEBDL via torrent?

Feel free to post your NFO, samples, subtitles, torrent, free download link, requirements or whatever-related comments here. use only English. Owners of this website aren't responsible for content of comments.

Recent Comments :
Your Name : Leave a reply
CAPTCHA: rss