Free Movies Download torrent

Lizzie 2013 720p



Info Hash:
Torrent Added time: Nov 18, 2013
Last Updated: 2014-04-13 16:30:19
Lizzie 2013
Director:
David Dunn Jr.

Writers:
Leif Holt (screenplay), Marielle Seastrom (revisions)

Stars:
Caitlin Carmichael, Amanda Baker, Corbin Bernsen

Genres:
Thriller

Country:
USA

Language:
English

Release Date:
10 September 2013 (USA)

Also Known As:
Bloody Lizzie

Filming Locations:
Los Angeles, California, USA

Plot:
ON AUGUST 4TH, 1892, ANDREW JACKSON BORDEN AND ABBY DURFEE BORDEN WERE BRUTALLY MURDERED WITH AN OLD HOUSEHOLD HATCHET...
0
General
Complete name                            : Lizzie 2013 720p WEBRIP x264 AC3-INFERNO
Format                                   : Matroska
Format version                           : Version 4 / Version 2
Duration                                 : 1h 26mn
Overall bit rate                         : 3 450 Kbps
Encoded date                             : UTC 2013-10-31 21:20:02
Writing application                      : mkvmerge v6.5.0 (\'Isn\'t she lovely\')
Writing library                          : libebml v1.3.0 + libmatroska v1.4.1

Video
ID                                       : 1
Format                                   : AVC
Format/Info                              : Advanced Video Codec
Format profile                           : High@L4.1
Format settings, CABAC                   : Yes
Format settings, ReFrames                : 5 frames
Codec ID                                 : V_MPEG4/ISO/AVC
Duration                                 : 1h 26mn
Bit rate                                 : 3 000 Kbps
Width                                    : 1 280 pixels
Height                                   : 638 pixels
Display aspect ratio                     : 2.006
Frame rate mode                          : Constant
Frame rate                               : 23.976 fps
Color space                              : YUV
Chroma subsampling                       : 4:2:0
Bit depth                                : 8 bits
Scan type                                : Progressive
Bits/(Pixel*Frame)                       : 0.153
Stream size                              : 1.77 GiB (85%)
Writing library                          : x264 core 138 r2358 9e941d1

Default                                  : Yes
Forced                                   : No

Audio
ID                                       : 2
Format                                   : AC-3
Format/Info                              : Audio Coding 3
Mode extension                           : CM (complete main)
Format settings, Endianness              : Big
Codec ID                                 : A_AC3
Duration                                 : 1h 26mn
Bit rate mode                            : Constant
Bit rate                                 : 448 Kbps
Channel(s)                               : 6 channels
Channel positions                        : Front: L C R, Side: L R, LFE
Sampling rate                            : 48.0 KHz
Bit depth                                : 16 bits
Compression mode                         : Lossy
Stream size                              : 276 MiB (13%)
Language                                 : English
Default                                  : Yes
Forced                                   : No

Text
ID                                       : 3
Format                                   : UTF-8
Codec ID                                 : S_TEXT/UTF8
Codec ID/Info                            : UTF-8 Plain Text
Language                                 : English
Default                                  : Yes
Forced                                   : No

Movie Rating:2.8/10 (451votes)
Size:2.10 GB

IMDB Link
Please Download ASAP
Movie Torrent Download     
Try UseNeT Free Trial Client to Download this movie.Dsl speed downloading up to 25 Mbps, 100% Anonymous & Safe. Over 300 TB Movie Music TV Sexy Video and torrent.
2 Weeks Free Trial!

Previous page : Once Upon a Time S03E08 720p HDTV x264-DIMENSION   Next : Greg Davies Live 2013 The Back Of My Mums Head DVDRip

People who liked this also watched...

Share Lizzie 2013 720p torrent with your Friend. Thank you

Torrent Not Downloading?

How to Download Lizzie 2013 720p via torrent?

Feel free to post your Lizzie 2013 720p NFO, samples, subtitles, torrent, free download link, requirements or whatever-related comments here. use only English. Owners of this website aren't responsible for content of comments.

Recent Comments :
Your Name : Leave a reply
CAPTCHA: rss