M S Dhoni The Untold Story 2016 720p WEBDL ESub



Info Hash: 153d784e0a68d81510b1331be7314d55fef0d85e
Torrent Added time: Nov 25, 2016
M S Dhoni The Untold Story 2016
Director:
Neeraj Pandey

Writers:
Neeraj Pandey (story and screenplay), Dilip Jha (dialogue)

Stars:
Disha Patani, Fawad Khan, Anupam Kher

Taglines:
The man you know... The journey you don't.

Genres:
Biography | Sport

Country:
India

Language:
Hindi

Release Date:
30 September 2016 (India)

Also Known As:
M.S. Dhoni

Filming Locations:
Jamshedpur, Jharkhand, India

Plot: 
The untold story of Dhoni's journey from ticket collector to trophy collector - the world-cup-winning captain of the Indian Cricket Team.

General
Complete name : M.S.Dhoni.The.Untold.Story.2016.720p.WEB-DL.H264.ESub.AAC2.0-DDR.mp4
Format : MPEG-4
Format profile : Base Media
Codec ID : isom
Duration : 2h 58mn
Overall bit rate mode : Variable
Overall bit rate : 2 131 Kbps
Writing application : Lavf56.15.102
Video
ID : 1
Format : AVC
Format/Info : Advanced Video Codec
Format profile : Main@L3.1
Format settings, CABAC : Yes
Format settings, ReFrames : 1 frame
Format settings, GOP : M=1, N=25
Codec ID : avc1
Codec ID/Info : Advanced Video Coding
Duration : 2h 58mn
Bit rate mode : Constant Bit rate : 2 000 Kbps
Width : 1 280 pixels
Height : 720 pixels
Display aspect ratio : 16:9
Frame rate mode : Constant
Frame rate : 25.000 fps
Color space : YUV
Chroma subsampling : 4:2:0
Bit depth : 8 bits
Scan type : Progressive
Bits/(Pixel*Frame) : 0.087
Stream size : 2.49 GiB (94%)

Audio
ID : 2
Format : AAC
Format/Info : Advanced Audio Codec
Format profile : LC
Codec ID : 40
Duration : 2h 58mn
Bit rate mode : Variable Bit rate : 125 Kbps
Maximum bit rate : 128 Kbps Channel(s) : 2 channels
Channel positions : Front: L R
Sampling rate : 48.0 KHz
Compression mode : Lossy
Stream size : 160 MiB (6%)

Movie Rating:8.2/10( 14,407Votes)
Size:2.58 GB

IMDB Link
Please Download ASAP
Movie Torrent Download
Try UseNeT Free Trial Client to Download this movie.Dsl speed downloading up to 25 Mbps, 100% Anonymous & Safe. Over 300 TB Movie Music TV Sexy Video and torrent.
2 Weeks Free Trial!

Previous page : Ink Master Redemption S03E11 HDTV   Next : Ice Sharks 2016 BluRay 720p

People who liked this also watched...

Share M S Dhoni The Untold Story 2016 720p WEBDL ESub torrent with your Friend. Thank you

Torrent Not Downloading?

How to Download M S Dhoni The Untold Story 2016 720p WEBDL ESub via torrent?

Feel free to post your NFO, samples, subtitles, torrent, free download link, requirements or whatever-related comments here. use only English. Owners of this website aren't responsible for content of comments.

Recent Comments :
Your Name : Leave a reply
CAPTCHA: rss