Mother May I Sleep with Danger 2016 HDRip 1080p WEBDL



Info Hash: 712bee215dcd4adee310fa01735acc15e799af01
Torrent Added time: Sep 20, 2016
Mother May I Sleep with Danger 2016
Director:
Melanie Aitkenhead

Writers:
Amber Coney (script), James Franco (story by)

Stars:
James Franco, Emily Meade, Emma Rigby

Genres:
Thriller

Country:
USA

Language:
English

Release Date:
18 June 2016 (USA)

Plot: 
A college girl introduces her mother to her girlfriend... who happens to be a vampire.

Video
ID                                       : 1
Format                                   : AVC
Format/Info                              : Advanced Video Codec
Format profile                           : High@L4
Format settings, CABAC                   : Yes
Format settings, ReFrames                : 4 frames
Codec ID                                 : V_MPEG4/ISO/AVC
Duration                                 : 1h 25mn
Bit rate                                 : 4 952 Kbps
Width                                    : 1 920 pixels
Height                                   : 1 080 pixels
Display aspect ratio                     : 16:9
Frame rate mode                          : Constant
Frame rate                               : 23.976 fps
Color space                              : YUV
Chroma subsampling                       : 4:2:0
Bit depth                                : 8 bits
Scan type                                : Progressive
Bits/(Pixel*Frame)                       : 0.100
Stream size                              : 2.96 GiB (91%)
Title                                    : Mother.May.I.Sleep.with.Danger.2016.1080p.WEB-DL.DD5.1.H264-FGT
Language                                 : English
Default                                  : Yes
Forced                                   : No
Color range                              : Limited
Color primaries                          : BT.709
Transfer characteristics                 : BT.709
Matrix coefficients                      : BT.709

Audio
ID                                       : 2
Format                                   : AC-3
Format/Info                              : Audio Coding 3
Mode extension                           : CM (complete main)
Format settings, Endianness              : Big
Codec ID                                 : A_AC3
Duration                                 : 1h 25mn
Bit rate mode                            : Constant
Bit rate                                 : 384 Kbps
Channel(s)                               : 6 channels
Channel positions                        : Front: L C R, Side: L R, LFE
Sampling rate                            : 48.0 KHz
Frame rate                               : 31.250 fps (1536 spf)
Compression mode                         : Lossy
Stream size                              : 235 MiB (7%)
Title                                    : Mother.May.I.Sleep.with.Danger.2016.1080p.WEB-DL.DD5.1.H264-FGT
Language                                 : English
Default                                  : Yes
Forced                                   : No

Movie Rating:4.5/10( 365Votes)
Size:3.25 GB(1080p)

IMDB Link
Please Download ASAP
Movie Torrent Download
Movie Torrent Download (1080p)
Try UseNeT Free Trial Client to Download this movie.Dsl speed downloading up to 25 Mbps, 100% Anonymous & Safe. Over 300 TB Movie Music TV Sexy Video and torrent.
2 Weeks Free Trial!

Previous page : Angel of Reckoning 2016 HDRip 1080p WEBDL   Next : Jimmy Fallon 2016 09 19 Hillary Clinton HDTV

People who liked this also watched...

Share Mother May I Sleep with Danger 2016 HDRip 1080p WEBDL torrent with your Friend. Thank you

Torrent Not Downloading?

How to Download Mother May I Sleep with Danger 2016 HDRip 1080p WEBDL via torrent?

Feel free to post your NFO, samples, subtitles, torrent, free download link, requirements or whatever-related comments here. use only English. Owners of this website aren't responsible for content of comments.

Recent Comments :
Your Name : Leave a reply
CAPTCHA: rss