The Alchemist Cookbook 2016 HDRip 1080p WEBDL



Info Hash: 04c60056943d7d521eb576567e4afcffcf4d0ba4
Torrent Added time: Oct 07, 2016
The Alchemist Cookbook 2016
Director:
Joel Potrykus

Writer:
Joel Potrykus

Stars:
Ty Hickson, Amari Cheatom, Fiji

Genres:
Drama | Horror

Country:
USA

Language:
English

Release Date:
7 October 2016 (USA)

Plot: 
Suffering from delusions of fortune, a young hermit hides out in the forest hoping to crack an ancient mystery, but pays a price for his mania.

Video
ID                                       : 1
Format                                   : AVC
Format/Info                              : Advanced Video Codec
Format profile                           : High@L4
Format settings, CABAC                   : Yes
Format settings, ReFrames                : 4 frames
Codec ID                                 : V_MPEG4/ISO/AVC
Duration                                 : 1h 22mn
Bit rate                                 : 5 010 Kbps
Width                                    : 1 920 pixels
Height                                   : 1 032 pixels
Display aspect ratio                     : 1.85:1
Frame rate mode                          : Constant
Frame rate                               : 24.000 fps
Color space                              : YUV
Chroma subsampling                       : 4:2:0
Bit depth                                : 8 bits
Scan type                                : Progressive
Bits/(Pixel*Frame)                       : 0.105
Stream size                              : 2.89 GiB (91%)
Title                                    : The.Alchemist.Cookbook.2016.1080p.WEB-DL.DD5.1.H264-FGT
Language                                 : English
Default                                  : Yes
Forced                                   : No
Color range                              : Limited
Color primaries                          : BT.709
Transfer characteristics                 : BT.709
Matrix coefficients                      : BT.709

Audio
ID                                       : 2
Format                                   : AC-3
Format/Info                              : Audio Coding 3
Mode extension                           : CM (complete main)
Format settings, Endianness              : Big
Codec ID                                 : A_AC3
Duration                                 : 1h 22mn
Bit rate mode                            : Constant
Bit rate                                 : 384 Kbps
Channel(s)                               : 6 channels
Channel positions                        : Front: L C R, Side: L R, LFE
Sampling rate                            : 48.0 KHz
Frame rate                               : 31.250 fps (1536 spf)
Compression mode                         : Lossy
Stream size                              : 226 MiB (7%)
Title                                    : The.Alchemist.Cookbook.2016.1080p.WEB-DL.DD5.1.H264-FGT
Language                                 : English
Default                                  : Yes
Forced                                   : No

Movie Rating:6.2/10( 76Votes)
Size:3.17 GB(1080p)

IMDB Link
Please Download ASAP
Movie Torrent Download
Movie Torrent Download (1080p)
Try UseNeT Free Trial Client to Download this movie.Dsl speed downloading up to 25 Mbps, 100% Anonymous & Safe. Over 300 TB Movie Music TV Sexy Video and torrent.
2 Weeks Free Trial!

Previous page : 37 2016 HDRip 1080p WEBDL   Next : Suicide Squad 2016 HC HDRip 720p 1080p

People who liked this also watched...

Share The Alchemist Cookbook 2016 HDRip 1080p WEBDL torrent with your Friend. Thank you

Torrent Not Downloading?

How to Download The Alchemist Cookbook 2016 HDRip 1080p WEBDL via torrent?

Feel free to post your NFO, samples, subtitles, torrent, free download link, requirements or whatever-related comments here. use only English. Owners of this website aren't responsible for content of comments.

Recent Comments :
Your Name : Leave a reply
CAPTCHA: rss