The Good Neighbor 2016 HDRip 1080p WEBDL



Info Hash: 5e9138ad7ff5e7ceae59b7b548b30d8723399404
Torrent Added time: Sep 16, 2016
The Good Neighbor 2016
Director:
Kasra Farahani

Writers:
Mark Bianculli, Jeff Richard

Stars:
James Caan, Logan Miller, Keir Gilchrist

Taglines:
You never know who's watching.

Genres:
Thriller

Country:
USA

Language:
English

Release Date:
16 September 2016 (USA)

Also Known As:
The Waiting

Filming Locations:
Santa Clarita, California, USA

Plot: 
A pair of mischievous high school kids create the illusion of a haunting on an unsuspecting neighbor. While keeping his every reaction under surveillance, they see much more than they bargained for.

Video
ID                                       : 1
Format                                   : AVC
Format/Info                              : Advanced Video Codec
Format profile                           : High@L4
Format settings, CABAC                   : Yes
Format settings, ReFrames                : 5 frames
Codec ID                                 : V_MPEG4/ISO/AVC
Duration                                 : 1h 37mn
Bit rate                                 : 4 546 Kbps
Width                                    : 1 920 pixels
Height                                   : 792 pixels
Display aspect ratio                     : 2.40:1
Frame rate mode                          : Constant
Frame rate                               : 23.976 fps
Color space                              : YUV
Chroma subsampling                       : 4:2:0
Bit depth                                : 8 bits
Scan type                                : Progressive
Bits/(Pixel*Frame)                       : 0.125
Stream size                              : 3.09 GiB (90%)
Title                                    : The.Good.Neighbor.2016.1080p.WEB-DL.DD5.1.H264-FGT
Language                                 : English
Default                                  : Yes
Forced                                   : No
Color range                              : Limited
Color primaries                          : BT.709
Transfer characteristics                 : BT.709
Matrix coefficients                      : BT.709

Audio
ID                                       : 2
Format                                   : AC-3
Format/Info                              : Audio Coding 3
Mode extension                           : CM (complete main)
Format settings, Endianness              : Big
Codec ID                                 : A_AC3
Duration                                 : 1h 37mn
Bit rate mode                            : Constant
Bit rate                                 : 384 Kbps
Channel(s)                               : 6 channels
Channel positions                        : Front: L C R, Side: L R, LFE
Sampling rate                            : 48.0 KHz
Frame rate                               : 31.250 fps (1536 spf)
Compression mode                         : Lossy
Stream size                              : 267 MiB (8%)
Title                                    : The.Good.Neighbor.2016.1080p.WEB-DL.DD5.1.H264-FGT
Language                                 : English
Default                                  : Yes
Forced                                   : No

Movie Rating:7.7/10( 111Votes)
Size: 3.42 GB(1080p)

IMDB Link
Please Download ASAP
Movie Torrent Download
Movie Torrent Download (1080p)
Try UseNeT Free Trial Client to Download this movie.Dsl speed downloading up to 25 Mbps, 100% Anonymous & Safe. Over 300 TB Movie Music TV Sexy Video and torrent.
2 Weeks Free Trial!

Previous page : Tab Hunter Confidential 2015 LIMITED DVDRip   Next : Tell Me How I Die 2016 HDRip 1080p WEBDL

People who liked this also watched...

Share The Good Neighbor 2016 HDRip 1080p WEBDL torrent with your Friend. Thank you

Torrent Not Downloading?

How to Download The Good Neighbor 2016 HDRip 1080p WEBDL via torrent?

Feel free to post your NFO, samples, subtitles, torrent, free download link, requirements or whatever-related comments here. use only English. Owners of this website aren't responsible for content of comments.

Recent Comments :
Your Name : Leave a reply
CAPTCHA: rss