Banjo 2016 DesiSCR Rip Hindi



Info Hash: 48b88cb2615493393cf8efb21673fbcc68f8e42a
Torrent Added time: Sep 23, 2016
Banjo 2016
Director:
Ravi Jadhav

Writers:
Ravi Jadhav, Nikhil Mehrotra

Stars:
Riteish Deshmukh, Nargis Fakhri, Sheeba George

Genres:
Action | Drama | Musical

Country:
India

Language:
Hindi

Release Date:
23 September 2016 (India)

Plot: 
A banjo player seeks fame, success, and respect.

Video
ID : 1
Format : AVC
Format/Info : Advanced Video Codec
Format profile : High@L2.1
Format settings, CABAC : Yes
Format settings, ReFrames : 3 frames
Codec ID : V_MPEG4/ISO/AVC
Duration : 2 h 15 min
Bit rate : 651 kb/s
Width : 640 pixels
Height : 272 pixels
Display aspect ratio : 2.35:1
Frame rate mode : Constant
Frame rate : 25.000 FPS
Color space : YUV
Chroma subsampling : 4:2:0
Bit depth : 8 bits
Scan type : Progressive
Bits/(Pixel*Frame) : 0.150
Stream size : 630 MiB (89%)
Title : Mafiaking
Language : Hindi
Default : Yes
Forced : No

Audio
ID : 2
Format : MPEG Audio
Format version : Version 1
Format profile : Layer 3
Mode : Joint stereo
Mode extension : MS Stereo
Codec ID : A_MPEG/L3
Codec ID/Hint : MP3
Duration : 2 h 15 min
Bit rate mode : Constant
Bit rate : 80.0 kb/s
Channel(s) : 2 channels
Sampling rate : 32.0 kHz
Frame rate : 27.778 FPS (1152 spf)
Compression mode : Lossy
Stream size : 77.5 MiB (11%)
Title : Mafiaking
Writing library : LAME3.99r
Language : Hindi
Default : Yes
Forced : No

Movie Rating:7.3/10( 52Votes)
Size:717.17 MB

IMDB Link
Please Download ASAP
Movie Torrent Download
Try UseNeT Free Trial Client to Download this movie.Dsl speed downloading up to 25 Mbps, 100% Anonymous & Safe. Over 300 TB Movie Music TV Sexy Video and torrent.
2 Weeks Free Trial!

Previous page : Provoked 2016 BDRip   Next : The Daily Show 2016 09 22 Lisa Ling HDTV

People who liked this also watched...

Share Banjo 2016 DesiSCR Rip Hindi torrent with your Friend. Thank you

Torrent Not Downloading?

How to Download Banjo 2016 DesiSCR Rip Hindi via torrent?

Feel free to post your NFO, samples, subtitles, torrent, free download link, requirements or whatever-related comments here. use only English. Owners of this website aren't responsible for content of comments.

Recent Comments :
Your Name : Leave a reply
CAPTCHA: rss