Free Movies Download torrent

Carrie 2013 CAMRiP MP4



Info Hash:
Torrent Added time: Oct 20, 2013
Last Updated: 2014-04-13 16:29:53
Carrie 2013
Director:
Kimberly Peirce

Writers:
Lawrence D. Cohen (screenplay), Roberto Aguirre-Sacasa (screenplay)

Stars:
Chloë Grace Moretz, Julianne Moore, Gabriella Wilde

Taglines:
Know her name. Fear her power.

Genres:
Drama | Horror

Language:
English

Release Date:
16 October 2013 (Philippines)

Also Known As:
Carrie, a Estranha

Filming Locations:
Pinewood Toronto Studios, Port Lands, Toronto, Ontario, Canada

Plot:
A reimagining of the classic horror tale about Carrie White, a shy girl outcast by her peers and sheltered by her deeply religious mother, who unleashes telekinetic terror on her small town after being pushed too far at her senior prom.

Carrie 2013 CAMRiP MP4 AAC MURDER.mp4

Format : MPEG-4
Format profile : Base Media
Codec ID : isom
Duration : 52mn 12s
Overall bit rate : 1 600 Kbps
Encoded date : UTC 2013-10-20 11:57:01
Tagged date : UTC 2013-10-20 11:57:01
Writing application : Lavf55.16.102

Video
ID : 1
Format : AVC
Format/Info : Advanced Video Codec
Format profile : Main@L4.2
Format settings, CABAC : Yes
Format settings, ReFrames : 2 frames
Codec ID : avc1
Codec ID/Info : Advanced Video Coding
Duration : 52mn 12s
Duration_FirstFrame : -33ms
Bit rate : 1 500 Kbps
Width : 678 pixels
Height : 382 pixels
Display aspect ratio : 16:9
Frame rate mode : Variable
Frame rate : 30.000 fps
Minimum frame rate : 30.000 fps
Maximum frame rate : 30.118 fps
Color space : YUV
Chroma subsampling : 4:2:0
Bit depth : 8 bits
Scan type : Progressive
Bits/(Pixel*Frame) : 0.193
Stream size : 561 MiB (94%)
Writing library : x264 core 138 r2345
Encoded date : UTC 2013-10-20 11:57:01
Tagged date : UTC 2013-10-20 11:57:01

Audio
ID : 2
Format : AAC
Format/Info : Advanced Audio Codec
Format profile : LC
Codec ID : 40
Duration : 52mn 12s
Bit rate mode : Constant
Bit rate : 89.5 Kbps
Channel count : 2 channels
Channel positions : Front: L R
Sampling rate : 44.1 KHz
Compression mode : Lossy
Stream size : 33.4 MiB (6%)
Encoded date : UTC 2013-10-20 11:57:01
Tagged date : UTC 2013-10-20 11:57:01
SOURCE Ws berry,s 720p cam......thanks

Genre: Drama | Horror
Directed by: Kimberly Peirce
Starring: Chloë Grace Moretz, Julianne Moore, Gabriella Wilde

Release Name: Carrie.2013.CAMRiP.X264.AAC-MURDER
Video: AVi | 622×282 | 1 724 Kbps
Audio: English | MP3 | 128 kbps
Runtime: 1h 30mn
Subtitles: N/A

Movie Rating:6.6/10 ( 4,427votes)

Size:598 MB
         1.18 GB(MP3)

Trailer(MP3)
Video @ #1#2#3(MP3)
NETLOADUPLOADEDRAPiDGATORRYUSHARE(MP3)

 
IMDB Link
Please Download ASAP
Movie Torrent Download    
Movie Torrent Download(MP3)  
Try UseNeT Free Trial Client to Download this movie.Dsl speed downloading up to 25 Mbps, 100% Anonymous & Safe. Over 300 TB Movie Music TV Sexy Video and torrent.
2 Weeks Free Trial!

Previous page : 2 Guns 2013 Webrip AC3   Next : Deep Dark Canyon 2013 720p 1080p-YIFY

People who liked this also watched...

Share Carrie 2013 CAMRiP MP4 torrent with your Friend. Thank you

Torrent Not Downloading?

How to Download Carrie 2013 CAMRiP MP4 via torrent?

Feel free to post your Carrie 2013 CAMRiP MP4 NFO, samples, subtitles, torrent, free download link, requirements or whatever-related comments here. use only English. Owners of this website aren't responsible for content of comments.

Recent Comments :
Your Name : Leave a reply
CAPTCHA: rss