Mirzya 2016 DesiSCR Rip Hindi



Info Hash: 901174cc6908c2dac50a4bab2e74e95ce17f295d
Torrent Added time: Oct 08, 2016
Mirzya 2016
Director:
Rakeysh Omprakash Mehra

Writer:
Gulzar

Taglines:
Dare to love

Genres:
Drama | Musical | Romance

Country:
India

Language:
Hindi

Release Date:
7 October 2016 (India)

Stars:
Harshvardhan Kapoor, Saiyami Kher, Art Malik

Plot: 
A horse groom reconnects with his childhood love, but she is engaged to marry the local prince.

General
Unique ID : 251777400829919588784838219610033426033 (0xBD6A9045537E105D95538F4D8C8F0E71)
Complete name : Mirzya (2016) - 1CD - DesiSCR-Rip - Hindi - x264 - MP3 - Mafiaking - M2Tv.mkv
Format : Matroska
Format version : Version 4 / Version 2
Duration : 2 h 9 min
Overall bit rate : 757 kb/s
Movie name : Mirzya (2016) - 1CD - DesiSCR-Rip - Hindi - x264 - MP3 - Mafiaking - M2Tv
Encoded date : UTC 2016-10-07 16:36:41
Writing application : mkvmerge v7.0.0 ('Where We Going') 32bit built on Jun 9 2014 15:08:34
Writing library : libebml v1.3.0 + libmatroska v1.4.1

Video
ID : 1
Format : AVC
Format/Info : Advanced Video Codec
Format profile : High@L2.1
Format settings, CABAC : Yes
Format settings, ReFrames : 3 frames
Codec ID : V_MPEG4/ISO/AVC
Duration : 2 h 9 min
Bit rate : 676 kb/s
Width : 640 pixels
Height : 272 pixels
Display aspect ratio : 2.35:1
Frame rate mode : Constant
Frame rate : 25.000 FPS
Color space : YUV
Chroma subsampling : 4:2:0
Bit depth : 8 bits
Scan type : Progressive
Bits/(Pixel*Frame) : 0.155
Stream size : 625 MiB (89%)
Title : Mafiaking
Language : Hindi
Default : Yes
Forced : No

Audio
ID : 2
Format : MPEG Audio
Format version : Version 1
Format profile : Layer 3
Mode : Joint stereo
Mode extension : MS Stereo
Codec ID : A_MPEG/L3
Codec ID/Hint : MP3
Duration : 2 h 9 min
Bit rate mode : Constant
Bit rate : 80.0 kb/s
Channel(s) : 2 channels
Sampling rate : 32.0 kHz
Frame rate : 27.778 FPS (1152 spf)
Compression mode : Lossy
Stream size : 74.0 MiB (11%)
Title : Mafiaking
Writing library : LAME3.99r
Language : Hindi
Default : Yes
Forced : No

Movie Rating:5.7/10( 175Votes)
Size:705.92 MB

IMDB Link
Please Download ASAP
Movie Torrent Download
Try UseNeT Free Trial Client to Download this movie.Dsl speed downloading up to 25 Mbps, 100% Anonymous & Safe. Over 300 TB Movie Music TV Sexy Video and torrent.
2 Weeks Free Trial!

Previous page : The Hollow 2016 HDRip   Next : Hells Kitchen US S16E03 HDTV

People who liked this also watched...

Share Mirzya 2016 DesiSCR Rip Hindi torrent with your Friend. Thank you

Torrent Not Downloading?

How to Download Mirzya 2016 DesiSCR Rip Hindi via torrent?

Feel free to post your NFO, samples, subtitles, torrent, free download link, requirements or whatever-related comments here. use only English. Owners of this website aren't responsible for content of comments.

Recent Comments :
Your Name : Leave a reply
CAPTCHA: rss