The Family 2013 CAM



Info Hash:
Torrent Added time: Sep 20, 2013
Last Updated: 2014-08-18 15:29:26
The Family 2013
 
Director:
Luc Besson

Writers:
Luc Besson (screenplay), Michael Caleo (screenplay)

Stars:
Robert De Niro, Michelle Pfeiffer, Dianna Agron

Taglines:
John D'Leo is the young gun

Genres:
Action | Comedy | Crime

Country:
USA | France

Language:
English | French

Release Date:
13 September 2013 (USA)

Also Known As:
Malavita

Filming Locations:
Studios de Paris, La Cité du Cinéma, Saint-Denis, Seine-Saint-Denis, France

Plot:
A mafia boss and his family are relocated to a sleepy town in France under the witness protection program after snitching on the mob. Despite the best efforts of CIA Agent Stansfield (Tommy Lee Jones) to keep them in line, Fred Manzoni (Robert De Niro), his wife Maggie (Michelle Pfeiffer) and their children Belle (Dianna Agron) and Warren (John D'Leo) can't help but revert to old habits and blow their cover by handling their problems the "family" way, enabling their former mafia cronies to track them down. Chaos ensues as old scores are settled in the unlikeliest of settings in this darkly funny film by Luc Besson (Taken, Transporter)

Format                                   : AVI
Format/Info                              : Audio Video Interleave
Duration                                 : 1h 45mn
Overall bit rate                         : 1 887 Kbps
Writing application                      : VirtualDubMod 1.5.10.2 (build 2540/release)
Writing library                          : VirtualDubMod build 2540/release

Video
ID                                       : 0
Format                                   : MPEG-4 Visual
Format profile                           : Advanced Simple@L5
Format settings, BVOP                    : 2
Format settings, QPel                    : No
Format settings, GMC                     : No warppoints
Format settings, Matrix                  : Default (H.263)
Muxing mode                              : Packed bitstream
Codec ID                                 : XVID
Codec ID/Hint                            : XviD
Duration                                 : 1h 45mn
Bit rate                                 : 1 747 Kbps
Width                                    : 720 pixels
Height                                   : 294 pixels
Display aspect ratio                     : 2.40:1
Frame rate                               : 29.970 fps
Color space                              : YUV
Chroma subsampling                       : 4:2:0
Bit depth                                : 8 bits
Scan type                                : Progressive
Compression mode                         : Lossy
Bits/(Pixel*Frame)                       : 0.275
Stream size                              : 1.28 GiB (93%)
Writing library                          : XviD 64

Audio
ID                                       : 1
Format                                   : MPEG Audio
Format version                           : Version 1
Format profile                           : Layer 3
Codec ID                                 : 55
Codec ID/Hint                            : MP3
Duration                                 : 1h 45mn
Bit rate mode                            : Constant
Bit rate                                 : 128 Kbps
Channel(s)                               : 2 channels
Sampling rate                            : 48.0 KHz
Compression mode                         : Lossy
Stream size                              : 96.4 MiB (7%)
Alignment                                : Split accross interleaves
Interleave, duration                     : 33 ms (1.00 video frame)
Interleave, preload duration             : 500 ms

Movie Rating:6.5/10 ( 2,055votes)
Size:1437 MB

IMDB Link
Please Download ASAP
Movie Torrent Download    
Try UseNeT Free Trial Client to Download this movie.Dsl speed downloading up to 25 Mbps, 100% Anonymous & Safe. Over 300 TB Movie Music TV Sexy Video and torrent.
2 Weeks Free Trial!

Previous page : A True Story 2013 HDRip   Next : The Making of Easy Rider 2of2 Shaking the Cage XviD AC3

People who liked this also watched...

Share The Family 2013 CAM torrent with your Friend. Thank you

Torrent Not Downloading?

How to Download The Family 2013 CAM via torrent?

Feel free to post your The Family 2013 CAM NFO, samples, subtitles, torrent, free download link, requirements or whatever-related comments here. use only English. Owners of this website aren't responsible for content of comments.

Recent Comments :
Your Name : Leave a reply
CAPTCHA: rss